#TITLE:Catch Me;
#SUBTITLE:Expi3nze;
#ARTIST:TVXQ;
#TITLETRANSLIT:;
#SUBTITLETRANSLIT:;
#ARTISTTRANSLIT:;
#CREDIT:;
#BANNER:bn.png;
#BACKGROUND:bg.png;
#LYRICSPATH:;
#CDTITLE:cdtitle.png;
#MUSIC:Catch Me.mp3;
#OFFSET:-0.100;
#SAMPLESTART:100.000;
#SAMPLELENGTH:12.000;
#SELECTABLE:YES;
#BPMS:0.000=128.012,1.000=127.999,16.000=128.012,17.000=127.999,32.000=128.012,33.000=127.999,48.000=128.012,49.000=127.999,64.000=128.012,65.000=127.999,66.000=64.006,66.333=256.023,67.000=64.006,67.333=256.023,68.000=64.006,68.333=256.023,69.000=64.006,69.333=256.023,70.000=128.012,71.000=127.999,72.000=255.998,73.000=256.048,74.000=255.998,74.500=511.997,75.000=1023.990,77.000=511.997,77.500=255.998,78.000=128.012,79.000=127.999,94.000=128.012,95.000=127.999,111.000=128.012,112.000=127.999,127.000=128.012,128.000=127.999,143.000=128.012,144.000=127.999,159.000=128.012,160.000=127.999,175.000=128.012,176.000=127.999,191.000=128.012,192.000=127.999,208.000=64.006,208.333=256.023,209.000=127.999,211.000=128.012,212.000=127.999,227.000=128.012,228.000=127.999,237.500=255.998,237.750=511.997,238.000=511.997,238.750=255.998,240.000=127.999,241.500=255.998,243.000=511.997,246.000=1023.990,247.000=511.997,247.500=255.998,248.000=127.999,250.000=128.012,251.000=127.999,266.000=128.012,267.000=127.999,279.000=64.006,279.333=256.023,280.000=127.999,282.000=128.012,283.000=127.999;
#STOPS:;
#BGCHANGES:;
// cache tags:
#FIRSTBEAT:2.000;
#LASTBEAT:285.000;
#SONGFILENAME:Songs/Expi3nze 4th Collection/Catch Me (TVXQ)/Catch Me.sm;
#HASMUSIC:1;
#HASBANNER:1;
#MUSICLENGTH:132.558;
// end cache tags

//---------------dance-single - ----------------
#NOTES:
     dance-single:
     :
     Hard:
     14:
     1.000,1.000,1.000,0.973,0.275,558.000,241.000,129.000,0.000,133.000:
0000
0000
0000
0000
0100
0100
0001
1000
,
0010
0001
1000
0100
0010
0001
0000
0000
0100
0000
0100
0000
0001
0000
0100
0000
,
0100
0001
0010
0100
1000
0000
0001
0010
1000
0011
0000
0000
0101
0000
0101
0000
,
0101
0000
0000
1010
0000
0000
1010
0000
1010
0000
0000
0101
0000
0000
0101
0000
,
0101
0000
0000
0101
0000
0000
0001
0010
2100
0000
0010
0000
0010
0000
0001
0000
,
0100
0010
0100
0010
0100
0000
0010
0000
3102
0000
0010
0000
0010
0000
0010
0000
,
0000
0000
0100
0000
0100
0000
0100
1000
0123
0000
0000
0101
0000
0000
0101
0000
,
0101
0000
0000
1100
0000
0000
1100
0000
1100
0000
0000
0101
0000
0000
0101
0000
,
0101
0000
0000
0101
0000
0000
0001
0001
2131
0000
0100
0000
0001
0000
0001
0000
,
0100
0010
0001
0100
0010
0000
0100
0000
3120
0000
0001
0000
1000
0000
1000
0000
,
0100
1000
0100
1000
0100
0000
1000
1000
0132
0000
1000
0000
0010
0000
0010
0000
,
1010
0000
0000
1010
0000
0000
1010
0000
1010
0000
0000
0010
0000
0000
1010
0000
,
1010
0000
1010
0100
2010
0000
0200
0000
3323
0000
1000
0000
1000
0000
0001
0000
,
1000
0000
1000
0100
1000
0001
1000
0000
2031
0000
0001
0000
0100
0000
0100
0000
,
0001
0010
0100
0001
0010
0000
0100
0010
3201
0000
0010
0000
0010
0000
1000
0000
,
0011
0000
0000
0011
0000
0000
0011
0000
0011
0000
0000
0011
0000
0000
0011
0000
,
0011
0000
0010
0001
0010
0001
0010
0000
0312
0000
0000
0000
2013
0000
0000
0000
,
3020
1132
0003
0000
,
0000
0000
0000
0000
,
0000
0000
0000
0000
0000
0000
0000
0000
2000
0200
3302
0000
1113
0000
2000
0000
,
3010
0000
0020
0000
1132
0000
2003
0200
3310
0000
0002
0020
1133
0000
2020
0000
,
3031
0000
2000
0000
3112
0000
2003
0000
3001
0000
0020
0200
1331
0000
2200
0000
,
3310
0002
1213
2300
3012
1013
1101
0101
,
0101
0000
1010
0000
1110
0000
0010
0000
2000
0200
3302
0000
1113
0000
2000
0000
,
3010
0000
0020
0000
1132
0000
2003
0200
3310
0000
0002
0020
1133
0000
2020
0000
,
3031
0000
2000
0000
3112
0000
2003
0000
3001
0000
0020
0200
1331
0000
2200
0000
,
3310
0000
0002
0000
1213
0000
2300
0000
3012
0000
1003
0100
0010
0000
1000
0000
,
1000
0010
2000
0000
3011
1000
0011
1001
,
1100
1000
0011
0011
1000
1010
1010
0101
,
1010
1010
1010
0011
0110
1100
0011
0011
,
1000
1000
1001
0001
1100
0001
1100
0001
,
0100
0101
0101
1010
1010
0001
1100
0110
,
0011
1000
0011
1000
0011
1000
1000
0010
,
0010
1010
1010
1001
1001
1000
0011
1000
,
0011
1000
0011
1001
1010
1000
0011
0011
,
2010
0200
3020
0302
1133
1001
1011
1010
,
1010
0001
1110
1010
0001
1100
1101
1001
,
1010
0010
1101
1010
1000
0010
0111
0101
,
0010
1000
1101
1000
1010
0001
1110
0010
,
1000
0100
1011
1010
1000
0011
1011
1010
,
1010
0001
1110
0011
1000
1010
1101
0101
,
0101
0001
1100
1100
0001
1100
1101
0101
,
1010
1010
1110
0000
0010
0010
1000
0001
,
0010
0100
1000
0010
0100
0000
0010
0000
2010
0000
0010
0000
0111
0000
0010
0000
,
0001
0010
0100
0001
0110
0001
0010
0000
3012
0000
1000
0000
1113
0000
1000
0000
,
0101
0101
0111
1000
0010
0010
0111
0001
,
0010
0100
1000
0010
1101
0010
1000
0100
1000
0000
0010
0000
0111
0000
0010
0000
,
1000
0100
0010
0001
1100
0000
1100
0000
2001
0000
0001
0000
0111
0000
0100
0000
,
0001
0010
0100
0001
0110
0001
0010
0000
3200
0000
0010
0000
1311
0000
1010
0000
,
1010
0001
1101
0011
1001
1100
1110
0010
,
1000
0100
0010
0001
1110
0000
1010
0000
1001
0000
1010
0000
1011
0000
0010
0000
,
1000
0100
0010
0000
2110
0000
0020
0000
3231
0000
2000
0000
3310
0000
0010
0000
,
1012
0000
1113
2020
3031
0101
1010
1010
,
1000
0010
1110
1000
0011
1001
1100
0100
,
0101
0000
0011
0011
0011
1000
0111
1000
,
0100
0100
0101
0001
2100
0000
3111
0001
,
0011
1010
1110
0010
1000
1010
1010
1001
,
1010
1000
0111
0101
0001
1100
1100
0001
,
0101
0000
0000
0000
1010
0000
1010
0000
2010
0000
0100
0010
0101
0000
0100
0000
,
0010
0000
0100
0001
0110
0000
0010
0000
0000
0000
0000
0000
3000
0000
0000
0000
,
0000
0000
0000
0000
,
0000
0000
0000
0000
,
2000
0200
3302
0000
1113
0000
2000
0000
3010
0000
0020
0000
1132
0000
2003
0200
,
3310
0000
0002
0020
1133
0000
2020
0000
3031
0000
2000
0000
3112
0000
2003
0000
,
3001
0000
0020
0200
1331
0000
2200
0000
3310
0000
0002
0000
1213
0000
2300
0000
,
3012
1013
1101
0101
0101
1010
1110
0010
,
2000
0200
3302
0000
1113
0000
2000
0000
3010
0000
0020
0000
1132
0000
2003
0200
,
3310
0000
0002
0020
1133
0000
2020
0000
3031
0000
2000
0000
3112
0000
2003
0000
,
3001
0000
0020
0200
1331
0000
2200
0000
3310
0000
0002
0000
1213
0000
2300
0000
,
3012
0000
1003
0100
0010
0000
1000
0000
1000
0000
0010
0000
2000
0000
0000
0000
,
0222
0000
0000
0000
,
0000
3333
0000
0000
,
0000
0000
0000
0000
,
0000
0000
0000
0000
,
0000
0000
0000
0000
,
0000
0000
0000
0000
,
0000
0000
0000
0000
;
